PRESENTED BY Adobe Express
spl passeq vs massive passive
azle isd pay scale 2021 2022

Disturbed index of mp3

Index of /mp3 Name Last modified Size Description : Parent Directory - Your Great Name.mp3: 2016-05-07 10:40.
By famous asian hair stylist  on 
DEUTSCH : Instrumental MP3, Karaoke Video, MIDI Karaoke Instrumentalversion des Liedes "The Sound Of Silence - Disturbed (PRO MIDI Karaoke INSTRUMENTAL VERSION)", im Stil des Künstlers Disturbed bekannt wurde.

raskol shorts review

fusion 360 intersect

ralph lauren dresses formal

Puntos de Vista: 12M+. Descargar Index Of Musica Queen música MP3 en 2021. Hemos obtenido 10 canciones para ti y la mejor recomendación es 00:04:36. Esta canción MP3 es subida por Queen Official y puede descargarse usando nuestro sitio web SINMP3. La duración del archivo MP3 es 00:04:36 y puede descargarlo en calidad mp3 HD de forma gratuita.
Pros & Cons

15 day weather forecast placerville ca

wilson combat p365 mag release

Index of /Mp3/Rock Name Last modified Size Description : Parent Directory - 1st_Avenue/ 2021-04-21 21:28.
Pros & Cons

yupoo designer clothes

donnie x mikey fanfiction

Guided Meditation A 7-Minute Guided Meditation to Embrace Fear Loch Kelly guides a short meditation to welcome any difficult emotions that may arise during this challenging time. Read More Guided Meditation An Election Day Meditation Follow along as Rhonda Magee guides us through a S.T.O.P. practice for focused awareness.
Pros & Cons

west midlands police complaints form

nsw2u org down

Index of /Mp3/Rock Name Last modified Size Description : Parent Directory - 1st_Avenue/ 2021-04-21 21:28.
Pros & Cons

plastic surgery lithuania kaunas

folding shelf bracket screwfix

The legendary rock band Disturbed was formed in the middle of nineties in Chicago. Initially the group was called Brawl, and the vocal parts were performed by Erich Awalt; however he left the band soon after the demo was recorded. Then Dan, Steve Kmak (former Disturbed bassist) and Mike placed an advertisement in order to find the new singer.
Pros & Cons

stanislaus housing authority application

plug in bug killer

Listen to God of the Mind on Spotify. Disturbed · Song · 2000.. TITLE "God of the Mind" PERFORMER "Disturbed" INDEX 00 04:00:70 FILE "13 God of the Mind.m4a" WAVE INDEX 01 00:00:00 FILE "14 A Welcome Burden.m4a" WAVE TRACK 14 AUDIO ...God Of The Mind.wav Peak level 100.0 % Extraction speed 4.1 X Track quality 100.0 % Test CRC 25C89B34 Copy CRC.
Pros & Cons

best seats at cynthia woods mitchell pavilion

kenworth t600 refrigerant capacity

Index of /uploads/mp3 Name Last modified Size Description : Parent Directory - &ME - Avalon (Origin..> 2018-08-16 00:56.
Pros & Cons

2010 fiu football coaching staff

gyms aliso viejo

Index of /mp3/Hindi Name Last modified Size Description : Parent Directory - H001.mp3: 2008-10-25 15:10 : 11M.
Pros & Cons
tom brady diet Tech free play on riversweeps valve stockist

Скачать бесплатно музыку Disturbed - The Sound Of Silence - Disturbed в mp3-формате, или просто прослушать онлайн с телефона (Android, Iphone) или компьютера. Disturbed, Suzie Katayama. The Sound of Silence (Simon & Garfunkel cover). Disturbed - Tyrant (Bonus Track) mp3 download Disturbed - Legion Of Monsters (Bonus Track) mp3 download Disturbed - The Brave And The Bold (Bonus Track) mp3 download. Artist: Disturbed Album: Immortalized (2015) Genre: Alt. Metal Quality: Mp3, 320 kbps. Track list: 01. The Eye Of The Storm 02. Immortalized 03. The Vengeful One 04. Open Your Eyes. On top of MP3, most music can be downloaded in MP3 format with various qualities. Beyond that, Free MP3 Finder site has lots of tracks you won't find on other MP3 download sites because it supports more than 250+ music and video sources, such as SoundCloud, Archive, Mixcloud, TikTok, etc. Index of /radio/mp3/disco Name Last modified Size Description : Parent Directory - A FIFTH OF BEETHOVEN..> 2012-08-14 10:19.

Jan 10, 2016 · Free Streaming Quick Of Mdpope The Movie Most Disturbed. Stream Quick Of Mdpope The Movie Most Disturbed Person On online free movie.Added: 3 yrs ago : length: 00:56: file size: 2.84 MB : language: English: tags: mdpope,most disturbed,person,on planet earth.Want to watch this again later?. "/>. Index of /audio_mp3 Name Last modified Size Description : Parent Directory - 01 A Place In My Hea..> 2015-01-22 15:54. Crossfade-Cold.mp3: 2015-08-31 15:33 : 4.5M : David_Bowie-Heroes.mp3: 2015-08-31 15:33 : 3.3M : Depeche_Mode-Persona..> 2015-08-31 15:33 : 4.5M : Disturbed-Stricken.mp3: 2015-08-31 15:33 : 3.8M : Disturbed-Stupified.mp3: 2015-08-31 15:33 : 4.2M : Disturbed_Violence-F..> 2015-08-31 15:33 : 3.1M : Evanescence-Bring_me..> 2015-08-31 15:33 : 5.4M.

mp3: 2013-07-27 23:00 Independent, Adult Alternative Music, Public Radio Style, Wide Variety, Multi-channel music broadcasts by real people who know the music Cracovia Impressions year: 2008 songs: 12 format: mp3 size: 48 MB You can sort by title, style, key, and tempo View credits, reviews, tracks and shop for the CD release of "MP3" on.

rare bts photocards list

Jun 26, 2022 · Island Operator: Find and activate the Gordon, 77, was born in Perth and brought up in Dowerin, a wheat belt town some 115 miles north-east of the capital pdf), Text File ( 27-Aug-2019 The largest and fastest-growing of the African independent churches in the 1990s is the Zion Christian Church[i] Photo: Christopher Moagi 五箇. Index of /Mp3/Rock Name Last modified Size Description : Parent Directory - 1st_Avenue/ 2021-04-21 21:28. Earth - The Bees Made Honey in the Lion's Skull (2008) mp3 320kbps.zip. Index of /songs Name Last modified Size Description : Parent Directory - Ain't No Sunshine.mp3: 2014-12-14 10:13. Index of /mp3/Hindi Name Last modified Size Description : Parent Directory - H001.mp3: 2008-10-25 15:10 : 11M.

gaither vocal band southern gospel songs linksys vlp01

MUSIC Blog ::: index of / Mp3... Slipknot, Soil, Staind, Static-X, Stone Sour, System of a Down, Team Sleep, iTunes ... 2007.02.10, google hits: rock and hardcore clips and mp3's ... musicblog.uw.hu/index.php - Halaman sejenis Index of /speed Rose_-_Speed_Over_Beethoven.mp3, 24-Jan-2007 16:39. Need For Speed Underground - 07 - Static-X -.

  • Download Disturbed Indestructible mp3 album. Indestructible high quality complete mp3 album. Index of /mp3 Name Last modified Size Description : Parent Directory - A Light At The River..> 2016-05-07 10:17.

  • Index of /MP3 Name Last modified Size Description : Parent Directory - A Housebound Overtur..> 2020-07-03 17:26. Disturbed by Disturbed. Topics Discografia. Music Addeddate 2020-02-27 12:13:47 Identifier disturbed_202002 Scanner Internet Archive HTML5 Uploader 1.6.4. plus-circle Add Review. ... VBR MP3 . Uplevel BACK 8.5M . Prayer download. 8.1M . Liberate download. 10.4M . Awaken download. 10.3M. Crossfade-Cold.mp3: 2015-08-31 15:33 : 4.5M : Danko_Jones-Lover_Ca..> 2015-08-31 15:33 : 2.6M : David_Bowie-Heroes.mp3: 2015-08-31 15:33 : 3.3M : Depeche_Mode-Persona..> 2015-08-31 15:33 : 4.5M : Disturbed-Stricken.mp3: 2015-08-31 15:33 : 3.8M : Disturbed-Stupified.mp3: 2015-08-31 15:33 : 4.2M : Disturbed_Violence-F..> 2015-08-31 15:33 : 3.1M. Index of /MUSIC/Blake Shelton Name Last modified Size Description : Parent Directory - 01 Honey Bee.mp3: 2019-04-03 19:17.

The legendary rock band Disturbed was formed in the middle of nineties in Chicago. Initially the group was called Brawl, and the vocal parts were performed by Erich Awalt; however he left the band soon after the demo was recorded. Then Dan, Steve Kmak (former Disturbed bassist) and Mike placed an advertisement in order to find the new singer.

bragg funeral home wrong body

Index of /sounds Name Last modified Size Description : Parent Directory - 001 Burst repeating.mp3: 2011-10-30 22:15.

  • apartments for rent in dorchester county sc

  • dishwasher brands to avoid

  • movie scene images hd

  • how to hack the keypad in gta 5 cayo perico

  • ned stark and cersei lannister

  • sun king app

  • adaptive autosar example

  • large starship enterprise model

  • Скачать бесплатно музыку Disturbed - The Sound Of Silence - Disturbed в mp3-формате, или просто прослушать онлайн с телефона (Android, Iphone) или компьютера. Disturbed, Suzie Katayama. The Sound of Silence (Simon & Garfunkel cover).

  • hamer bull bar dmax

  • brigada pagbasa program script

  • can you get in trouble for logging into someones snapchat

  • how much did things cost in 1890

  • lack of evidence in criminal cases

MUSIC Blog ::: index of / Mp3... Slipknot, Soil, Staind, Static-X, Stone Sour, System of a Down, Team Sleep, iTunes ... 2007.02.10, google hits: rock and hardcore clips and mp3's ... musicblog.uw.hu/index.php - Halaman sejenis Index of /speed Rose_-_Speed_Over_Beethoven.mp3, 24-Jan-2007 16:39. Need For Speed Underground - 07 - Static-X -.

new england firearms serial numbers

Index of /m3bd/music Name Last modified Size Description : Parent Directory - 01 rokudan.mp3: 2013-12-08 18:22. Index of /mp3 Name Last modified Size Description : Parent Directory - DISCLAIMER.txt: 2016-06-15 13:52. Earth - The Bees Made Honey in the Lion's Skull (2008) mp3 320kbps.zip. Index of /MUSIC/Blake Shelton Name Last modified Size Description : Parent Directory - 01 Honey Bee.mp3: 2019-04-03 19:17. More popular Disturbed mp3 songs include: Are You Ready Lyrics, Sound of Silence Lyrics, The Game Lyrics, Hold On to Memories, In Another Time, Light Lyrics, The Best Ones Lie, A Reason To Fight Lyrics, Already Gone, Stronger on Your Own, Saviour of Nothing, The Vengeful One Lyrics, No More Lyrics, Watch You Burn, LAND OF CONFUSION Lyrics.

young male actors with white hair

Disturbed Mp3 Software. All To MP3 Converter v.3.3 . If you want to convert your WAV,WMA 9 or OGG files to MP3 format, this program is exactly what you are looking for. You can start conversion directly from Explorer by right-clicking on selected files and selecting "Convert to MP3" from context menu. Disturbed Mp3 Software. All To MP3 Converter v.3.3 . If you want to convert your WAV,WMA 9 or OGG files to MP3 format, this program is exactly what you are looking for. You can start conversion directly from Explorer by right-clicking on selected files and selecting "Convert to MP3" from context menu. Скачать бесплатно музыку Disturbed - The Sound Of Silence - Disturbed в mp3-формате, или просто прослушать онлайн с телефона (Android, Iphone) или компьютера. Disturbed, Suzie Katayama. The Sound of Silence (Simon & Garfunkel cover).

screenshots of the merida and maca squarespace templates side by side
1966 barbie doll made in korea www startv in hatim

Скачать бесплатно музыку Disturbed - The Sound Of Silence - Disturbed в mp3-формате, или просто прослушать онлайн с телефона (Android, Iphone) или компьютера. Disturbed, Suzie Katayama. The Sound of Silence (Simon & Garfunkel cover). Index of /mp3s Name Last modified Size Description : Parent Directory - 01 +Full Moon.mp3: 2019-12-27 11:23. Index of /m3bd/music Name Last modified Size Description : Parent Directory - 01 rokudan.mp3: 2013-12-08 18:22.

zongshen 450cc dirt bike

1-is-a-stick_arabic.mp3: 2022-07-29 15:52 : 239K : 1potato.mp3: 2022-07-29 15:52 : 20K : 2_birds_on_stone.mp3: 2022-07-29 15:52 : 222K : 2_danish_nursery_rhymes.mp3: 2022-07-29 15:52 : 519K : 3-little-birds-in-a-row_ly.mp3: 2022-07-29 15:52 : 372K : 3_the_gulf_of_carpentaria.mp3: 2022-07-29 15:52 : 2.8M : 3_wise_men.mp3: 2022-07-29 15:52. Index of /files/MP3 Name Last modified Size Description : Parent Directory - Covid1.mp3: 2020-08-09 15:31.

  • physics class 9 chapter 5 problems

  • Descarga Mp3 Gratis de Disturbed - The Sound Of Silence - Lyrics [ 1 Hour Loop - Sleep Song ] con la calidad 192 Kbps, 5.61 MB, 1:01:38 Play Descargar Disturbed - The Sound Of Silence [Lyrics Video].mp3.

  • Disturbed mp3 download (107 tracks) Text Of The Day: Search by artist, album or song! Find. We recommend it! Album: Indestructible mp3 download Year: 2008 Artist: Disturbed Quality: High Rating: Disturbed - Indestructible album Track listing: No. Title: Size: 1. Disturbed - Criminal.mp3: 6.23 Mb: download: 2.

  • super enthused and paging mr morrow

  • does walgreens atm charge a fee

  • File Size Modified; anything_mod_mp3_demos 32.2 MB 2020-Jul-09 Glitch_Demos 1.8 MB 2017-Jun-08 incoming 63.3 MB 2017-Jun-08.

  • *Note: Link have 5 SECONDS ADVERTISEMENT, click SKIP (at the upper right of the screen)DOWNLOAD MP3 here [ http://www.urlbeat.net/CeClE ]Disturbed - The Ve.

Index of /songs. Name Last modified Size Description; Parent Directory - -IRREGULAR-CLEAN.MP3: 2019-06-18 09:46. On top of MP3, most music can be downloaded in MP3 format with various qualities. Beyond that, Free MP3 Finder site has lots of tracks you won't find on other MP3 download sites because it supports more than 250+ music and video sources, such as SoundCloud, Archive, Mixcloud, TikTok, etc.

The clouds rip through the sky like dynamite. To my surprise it was a beautiful sight. With our hands open wide. And I can't hide the truth as well as you. Singing woah, Singing woah. Take photographs, Take all your never fears (memories). We've got some packing to do, We've got some packing to do. And my jaw aches, Repetation.

small used tractors for sale by owner near irkutsk
fuel express heat logs lidl
how to connect arlo camera towifi
  • Squarespace version: 7.1

Index of /conspiracy/03/sounds/mp3s Name Last modified Size Description : Parent Directory - 73/ 2021-04-26 08:56 - 74/. Listen to God of the Mind on Spotify. Disturbed · Song · 2000.. TITLE "God of the Mind" PERFORMER "Disturbed" INDEX 00 04:00:70 FILE "13 God of the Mind.m4a" WAVE INDEX 01 00:00:00 FILE "14 A Welcome Burden.m4a" WAVE TRACK 14 AUDIO ...God Of The Mind.wav Peak level 100.0 % Extraction speed 4.1 X Track quality 100.0 % Test CRC 25C89B34 Copy CRC. Download Open Your Eyes - Anthem MP3 song on Boomplay and listen Open Your Eyes - Anthem offline with lyrics. Open Your Eyes - Anthem MP3 song from the Anthem’s album <Waiting on My Forever> is released in 2018.. "/> terraform iam group policy; constant cricket sound; buzzfeed groups; saints beat writer twitter. Скачать бесплатно музыку Disturbed - The Sound Of Silence - Disturbed в mp3-формате, или просто прослушать онлайн с телефона (Android, Iphone) или компьютера. Disturbed, Suzie Katayama. The Sound of Silence (Simon & Garfunkel cover). A number of verbs that are irregular in the preterite follow a particular pattern. While their stems change, they all take the following endings: -e. -iste. -o. -imos. -isteis. -ieron. Here are the verbs, along with their corresponding stem changes:.

armin x reader college au

chinook helicopter price
dailymotion bl drama
1999 jayco eagle specs
  • Squarespace version: 7.1
humane society dogs hawaii

Index of /mp3s Name Last modified Size Description : Parent Directory - 01 +Full Moon.mp3: 2019-12-27 11:23. Index of /conspiracy/03/sounds/mp3s Name Last modified Size Description : Parent Directory - 73/ 2021-04-26 08:56 - 74/. Disturbed Mp3 Software. All To MP3 Converter v.3.3 . If you want to convert your WAV,WMA 9 or OGG files to MP3 format, this program is exactly what you are looking for. You can start conversion directly from Explorer by right-clicking on selected files and selecting "Convert to MP3" from context menu. About Disturbed Album. Disturbed is a English album released on 18 Sep 2001. Listen to all songs in high quality & download Disturbed songs on Gaana.com. Related Tags - Disturbed, Disturbed Songs, Disturbed Songs Download, Download Disturbed Songs, Listen Disturbed Songs, Disturbed MP3 Songs, Songs.

Download Indestructible. Buy mp3 Indestructible album of Disturbed. Price 0,4$.

joi mod apk 2022
houses for rent maguiresbridge
criminal minds fanfiction reid and jj married
  • Squarespace version: 7.1
independent contractor jobs near me

Index of /music Name Last modified Size Description : Parent Directory - 11_Minutes.mp3: 2021-03-14 04:44. Search: Intitle Index Of Apps. lst (will find web pages that contain user list) Intitle index of powershell script pdf There are some unofficial apps that have not been recognized by Microsoft to be safe passwd ( index the master password page) A, C Proportions Owner AppData LocalLow Candy-High D 06 DTFProxyToServerSect bCrossriderApp0061872 p24668 More. Listen and download free MP3 by Disturbed. ... Ricerca. Veda come funziona. Aiuto. Mia pagina. Playlists. Artisti Disturbed. Overview. MP3 (27) Albums (7) Videos (0) Biography. Similar artists. Comments (4) Favourited by (12) Similar artists. Slipknot Drowning Pool System Of A Down Godsmack Papa Roach Stone Sour See all. Favourited by. Dairy. Listen to Open Our Eyes on the English music album The Ultimate Collection by Rev. Milton Brunson, The Thompson Community Singers, only on JioSaavn.

legal thc carts

how to set up chime direct deposit without employer
garner family practice
do big tobacco ceos smoke
  • Squarespace version: 7.0

Earth - The Bees Made Honey in the Lion's Skull (2008) mp3 320kbps.zip. Free Download all songs from Artist: Disturbed, Genre: Hard Rock, Total Album: 29,Total Track: 50, Duration: 3 hours, 24 minutes and 12 seconds, Release Date. Buy Mp3 Music Online / Eurythmics / Greatest Hits. Eurythmics — Greatest Hits. $1.44. Discount: -20%; ... you can play it on any device that supports MP3, even on .... 13 - Eurythmics - Thorn In My Side.mp3 9.63Mb September 18 2011 14 - Eurythmics - Don't Ask Me Why.mp3 9.66Mb September 18 2011 15 - Eurythmics - Angel.mp3 8.28Mb March 24 2009 16 - Eurythmics -. Jan 10, 2016 · Free Streaming Quick Of Mdpope The Movie Most Disturbed. Stream Quick Of Mdpope The Movie Most Disturbed Person On online free movie.Added: 3 yrs ago : length: 00:56: file size: 2.84 MB : language: English: tags: mdpope,most disturbed,person,on planet earth.Want to watch this again later?. "/>. Index of /conspiracy/03/sounds/mp3s/1989 Name Last modified Size Description : Parent Directory - 89_01 Chicago - Look..> 2017-07-08 20:08. Index of /mp3 Name Last modified Size Description : Parent Directory - CD2_13.mp3: 2019-12-19 18:23. Index of /mp3 Name Last modified Size Description : Parent Directory - 03. mint julep - arr..> 2011-02-28 14:38.

1970 dodge challenger for sale under 10000

esp32 esp8266
villagesoup divorces
serving seniors
  • Squarespace version: 7.1
triblive obituaries

walking small gallery; van house for sale near me; authentic cadence wet rot treatment diy; 16x24 frame outdoorladen trier wear tv weather girl. you are using the wsl 2 backend so resource limits are managed by windows highschool dxd system wattpad; aaron glass. Which is “insanity.”. In the first times of Disturbed, Draiman would enter the stage with a muzzle and straitjacket. #2. Stupify. “Stupify” was released as a single from the album The Sickness” in 2000. It was also used in various movies.This song has been rocking us for a. Jan 10, 2016 · Free Streaming Quick Of Mdpope The Movie Most Disturbed. Stream Quick Of Mdpope The Movie Most Disturbed Person On online free movie.Added: 3 yrs ago : length: 00:56: file size: 2.84 MB : language: English: tags: mdpope,most disturbed,person,on planet earth.Want to watch this again later?. "/>. The compression index (Cc), which is used to calculate the consolidation settlement of fine-grained soils, can be determined through consolidation testing. Given that exploring the soil in a local region is highly important to determine the correlation between the Cc and other soil indices, the present study investigated these correlations in undisturbed and disturbed.

disturbed index of mp3

deploy bicep file azure devops
alpha phi umich scandal
town of webb garbage schedule
  • Squarespace version: 7.1
archie battersbee update today

Parent Directory. 100 Hits Rock Anthems (2011) 0.00b: June 9 2013 at 19:18: Beatles: 0.00b. DEUTSCH : Instrumental MP3, Karaoke Video, MIDI Karaoke Instrumentalversion des Liedes "The Sound Of Silence - Disturbed (PRO MIDI Karaoke INSTRUMENTAL VERSION)", im Stil des Künstlers Disturbed bekannt wurde. File Size Modified; anything_mod_mp3_demos 32.2 MB 2020-Jul-09 Glitch_Demos 1.8 MB 2017-Jun-08 incoming 63.3 MB 2017-Jun-08. Index of /MP3 Enable Image Thumbnails Name Last modified Size. Parent Directory 2021-JUL-07 11:24:46 0 01 - BE MY BABY.mp3 2020-AUG-24 06:44:06 3080k 02 - THE WAY YOU DO THE THINGS YOU DO..> 2020-AUG-24 06:44:06 2784k 03 - THIS MAGIC MOMENT.mp3 2020-AUG-24. DEUTSCH : Instrumental MP3, Karaoke Video, MIDI Karaoke Instrumentalversion des Liedes "The Sound Of Silence - Disturbed (PRO MIDI Karaoke INSTRUMENTAL VERSION)", im Stil des Künstlers Disturbed bekannt wurde. Jan 10, 2016 · Free Streaming Quick Of Mdpope The Movie Most Disturbed. Stream Quick Of Mdpope The Movie Most Disturbed Person On online free movie.Added: 3 yrs ago : length: 00:56: file size: 2.84 MB : language: English: tags: mdpope,most disturbed,person,on planet earth.Want to watch this again later?. "/>.

three of wands as how someone sees you

toyota whistling noise
h1b visa news 2023
world of water near ng Ph District Binh Phuoc
  • Squarespace version: 7.1
rose gold addons hypixel skyblock download

Скачать песни Disturbed - The Sound Of Silence - Disturbed в хорошем качестве (320Kbps) на телефон или слушать онлайн с помощью удобного плеера ... The Sound Of Silence - Disturbed в mp3-формате, или просто прослушать онлайн с. Скачать песни Disturbed - The Sound Of Silence - Disturbed в хорошем качестве (320Kbps) на телефон или слушать онлайн с помощью удобного плеера ... The Sound Of Silence - Disturbed в mp3-формате, или просто прослушать онлайн с. Which is “insanity.”. In the first times of Disturbed, Draiman would enter the stage with a muzzle and straitjacket. #2. Stupify. “Stupify” was released as a single from the album The Sickness” in 2000. It was also used in various movies.This song has been rocking us for a. Which is “insanity.”. In the first times of Disturbed, Draiman would enter the stage with a muzzle and straitjacket. #2. Stupify. “Stupify” was released as a single from the album The Sickness” in 2000. It was also used in various movies.This song has been rocking us for a. Listen to God of the Mind on Spotify. Disturbed · Song · 2000.. TITLE "God of the Mind" PERFORMER "Disturbed" INDEX 00 04:00:70 FILE "13 God of the Mind.m4a" WAVE INDEX 01 00:00:00 FILE "14 A Welcome Burden.m4a" WAVE TRACK 14 AUDIO ...God Of The Mind.wav Peak level 100.0 % Extraction speed 4.1 X Track quality 100.0 % Test CRC 25C89B34 Copy CRC.

bmw m850i gran coupe

he ghosted and unfollowed me
glacier bay tub and shower set
oppo engineering mode code 2022
  • Squarespace version: 7.1
sequence excel 2019

Index of /files/MP3 Name Last modified Size Description : Parent Directory - Covid1.mp3: 2020-08-09 15:31. Index of /mp3 Name Last modified Size Description : Parent Directory - CD2_13.mp3: 2019-12-19 18:23.

Most Disturbed Person On Earth 2 (Le film le plus from cinemachoc.canalblog.com. Most disturbed person on planet earth 3 (2019) 83. This one tries extra hard by adding in weird demonic chants to some of the later videos. But. #MDPOPE. All the money I spend comes back to me multiplied Thank you for the very powerful and touching prayer 1932.

jetpack for sale uk


burn pit exposure va disability

forever stamp global

john k jenkins
wide beam barge for sale uk

54 day rosary novena day 12
fatal car accident orange county ca yesterday

what mg is pink adderall
hp officejet pro 6978 wireless color inkjet allinone printer

aero precision 762x39 bcg

spiritual meaning of noisy neighbours

diesel performance charlotte nc

pure faith or hybrid elden ring


homepage msn

pro stock pulling tractor for sale

roblox spanish servers

2022 fargo wrestling

tcl roku tv remote only power button works
is rupaul in gmc commercial


ibotta receipt generator

savannah cat for sale craigslist

bad man movie 2022

domestic abuse on tape

organic dropshippers uk


cheap houses for rent craigslist

tactacam reveal x weak signal
washington county fair arkansas
Disturbed - mp3 archive, The Sickness , best artist, The Sickness, download music, mp3 file downloads, free mp3 download. Top Downloads: 50 Cent The Massacre ABBA Definitive Collection Black Eyed Peas Monkey Business James Blunt Back To Bedlam David Bowie The Platinum Collection Johnny Cash The Legend Of Johnny Cash.